电视剧之家

 找回密码
 立即注册
搜索
查看: 133|回复: 3

[无台标][韩剧:流浪者 全16集][1080P-Netflix版/43G][国语/韩语等多国音轨 中文英文等多国软字幕][MKV][百度]

[复制链接]
发表于 2019-11-27 17:12:25 | 显示全部楼层 |阅读模式


◎译  名 流浪者 / Vagabond / 亡途觅雪(港) / 浪客行 / 浪行惊爆点(台)
◎片  名 배가본드
◎年  代 2019
◎产  地 韩国
◎类  别 动作 / 爱情 / 惊悚
◎语  言 韩语
◎上映日期 2019-09-20(韩国)
◎IMDb链接  http://www.imdb.com/title/tt8523042
◎豆瓣评分 0/10 from 0 users
◎豆瓣链接 https://movie.douban.com/subject/27153693/
◎集  数 16
◎片  长 30分钟
◎导  演 刘仁值 In Sik Yoo
◎编  剧 張英哲 Jang Yeong-cheol / 郑景顺 Kyeong Soon Jeong
◎主  演 李昇基 Seung gi Lee
       裴秀智 Suzy Bae
       申成禄 Sung-rok Shin
       郑满植 Man-shik Jeong
       金民钟 Min-jong Kim
       白润植 Yun-shik Baek
       李璟荣 Kyeong-yeong Lee
       文成根 Seung Geun Moon


◎标  签 裴秀智 | 李昇基 | 韩剧 | 浪客行 | 韩国 | 2019 | 电视剧 | 韓國

◎简  介  

  《流浪者》讲述了李昇基饰演的特技演员车达建被卷入一场悲剧性的坠机事件,在这过程中,最终发现了一起全国性的腐败丑闻。裴秀智饰演的高海丽是一名阵亡海军陆战队士兵的长女,她梦想能够成为一名公务员,但为了赡养母亲和抚养弟弟妹妹,她决定担任国家情报局的秘密特工。
  1. Format                                   : Matroska
  2. Format version                           : Version 4
  3. File size                                : 2.91 GiB
  4. Duration                                 : 1 h 1 min
  5. Overall bit rate mode                    : Variable
  6. Overall bit rate                         : 6 773 kb/s
  7. Encoded date                             : UTC 2019-11-23 07:38:18
  8. Writing application                      : mkvmerge v35.0.0 ('All The Love In The World') 64-bit
  9. Writing library                          : libebml v1.3.9 + libmatroska v1.5.2

  10. Video
  11. ID                                       : 1
  12. Format                                   : AVC
  13. Format/Info                              : Advanced Video Codec
  14. Format profile                           : Main@L4
  15. Format settings                          : CABAC / 3 Ref Frames
  16. Format settings, CABAC                   : Yes
  17. Format settings, Reference frames        : 3 frames
  18. Codec ID                                 : V_MPEG4/ISO/AVC
  19. Duration                                 : 1 h 1 min
  20. Bit rate mode                            : Variable
  21. Bit rate                                 : 6 190 kb/s
  22. Maximum bit rate                         : 9 285 kb/s
  23. Width                                    : 1 920 pixels
  24. Height                                   : 1 080 pixels
  25. Display aspect ratio                     : 16:9
  26. Frame rate mode                          : Constant
  27. Frame rate                               : 23.976 (24000/1001) FPS
  28. Color space                              : YUV
  29. Chroma subsampling                       : 4:2:0
  30. Bit depth                                : 8 bits
  31. Scan type                                : Progressive
  32. Bits/(Pixel*Frame)                       : 0.125
  33. Stream size                              : 2.63 GiB (90%)
  34. Writing library                          : x264 core 148 r2715 7e75228
  35. Encoding settings                        : cabac=1 / ref=3 / deblock=1:0:0 / analyse=0x1:0x111 / me=umh / subme=10 / psy=1 / psy_rd=1.00:0.00 / mixed_ref=1 / me_range=24 / chroma_me=1 / trellis=2 / 8x8dct=0 / cqm=0 / deadzone=21,11 / fast_pskip=1 / chroma_qp_offset=-2 / threads=8 / lookahead_threads=1 / sliced_threads=0 / nr=0 / decimate=1 / interlaced=0 / bluray_compat=0 / stitchable=1 / constrained_intra=0 / bframes=2 / b_pyramid=0 / b_adapt=2 / b_bias=0 / direct=3 / weightb=1 / open_gop=0 / weightp=2 / keyint=250 / keyint_min=23 / scenecut=0 / intra_refresh=0 / rc_lookahead=48 / rc=2pass / mbtree=1 / bitrate=6190 / ratetol=1.0 / qcomp=0.50 / qpmin=6 / qpmax=51 / qpstep=4 / cplxblur=20.0 / qblur=0.5 / vbv_maxrate=9285 / vbv_bufsize=12380 / nal_hrd=vbr / filler=0 / ip_ratio=1.40 / aq=1:1.00
  36. Default                                  : Yes
  37. Forced                                   : No

  38. Audio #1
  39. ID                                       : 2
  40. Format                                   : E-AC-3
  41. Format/Info                              : Enhanced AC-3
  42. Commercial name                          : Dolby Digital Plus
  43. Codec ID                                 : A_EAC3
  44. Duration                                 : 1 h 1 min
  45. Bit rate mode                            : Constant
  46. Bit rate                                 : 128 kb/s
  47. Channel(s)                               : 2 channels
  48. Channel layout                           : L R
  49. Sampling rate                            : 48.0 kHz
  50. Frame rate                               : 31.250 FPS (1536 SPF)
  51. Compression mode                         : Lossy
  52. Stream size                              : 56.3 MiB (2%)
  53. Language                                 : Korean
  54. Service kind                             : Complete Main
  55. Default                                  : Yes
  56. Forced                                   : No

  57. Audio #2
  58. ID                                       : 3
  59. Format                                   : E-AC-3
  60. Format/Info                              : Enhanced AC-3
  61. Commercial name                          : Dolby Digital Plus
  62. Codec ID                                 : A_EAC3
  63. Duration                                 : 1 h 1 min
  64. Bit rate mode                            : Constant
  65. Bit rate                                 : 128 kb/s
  66. Channel(s)                               : 2 channels
  67. Channel layout                           : L R
  68. Sampling rate                            : 48.0 kHz
  69. Frame rate                               : 31.250 FPS (1536 SPF)
  70. Compression mode                         : Lossy
  71. Stream size                              : 56.3 MiB (2%)
  72. Title                                    : Latin American
  73. Language                                 : Spanish
  74. Service kind                             : Complete Main
  75. Default                                  : No
  76. Forced                                   : No

  77. Audio #3
  78. ID                                       : 4
  79. Format                                   : E-AC-3
  80. Format/Info                              : Enhanced AC-3
  81. Commercial name                          : Dolby Digital Plus
  82. Codec ID                                 : A_EAC3
  83. Duration                                 : 1 h 1 min
  84. Bit rate mode                            : Constant
  85. Bit rate                                 : 128 kb/s
  86. Channel(s)                               : 2 channels
  87. Channel layout                           : L R
  88. Sampling rate                            : 48.0 kHz
  89. Frame rate                               : 31.250 FPS (1536 SPF)
  90. Compression mode                         : Lossy
  91. Stream size                              : 56.3 MiB (2%)
  92. Language                                 : Chinese
  93. Service kind                             : Complete Main
  94. Default                                  : No
  95. Forced                                   : No

  96. Audio #4
  97. ID                                       : 5
  98. Format                                   : E-AC-3
  99. Format/Info                              : Enhanced AC-3
  100. Commercial name                          : Dolby Digital Plus
  101. Codec ID                                 : A_EAC3
  102. Duration                                 : 1 h 1 min
  103. Bit rate mode                            : Constant
  104. Bit rate                                 : 128 kb/s
  105. Channel(s)                               : 2 channels
  106. Channel layout                           : L R
  107. Sampling rate                            : 48.0 kHz
  108. Frame rate                               : 31.250 FPS (1536 SPF)
  109. Compression mode                         : Lossy
  110. Stream size                              : 56.3 MiB (2%)
  111. Title                                    : Brazilian
  112. Language                                 : Portuguese
  113. Service kind                             : Complete Main
  114. Default                                  : No
  115. Forced                                   : No

  116. Audio #5
  117. ID                                       : 6
  118. Format                                   : E-AC-3
  119. Format/Info                              : Enhanced AC-3
  120. Commercial name                          : Dolby Digital Plus
  121. Codec ID                                 : A_EAC3
  122. Duration                                 : 1 h 1 min
  123. Bit rate mode                            : Constant
  124. Bit rate                                 : 128 kb/s
  125. Channel(s)                               : 2 channels
  126. Channel layout                           : L R
  127. Sampling rate                            : 48.0 kHz
  128. Frame rate                               : 31.250 FPS (1536 SPF)
  129. Compression mode                         : Lossy
  130. Stream size                              : 56.3 MiB (2%)
  131. Language                                 : Thai
  132. Service kind                             : Complete Main
  133. Default                                  : No
  134. Forced                                   : No

  135. Text #1
  136. ID                                       : 7
  137. Format                                   : UTF-8
  138. Codec ID                                 : S_TEXT/UTF8
  139. Codec ID/Info                            : UTF-8 Plain Text
  140. Duration                                 : 55 min 37 s
  141. Bit rate                                 : 41 b/s
  142. Count of elements                        : 503
  143. Stream size                              : 17.1 KiB (0%)
  144. Language                                 : English
  145. Default                                  : Yes
  146. Forced                                   : No

  147. Text #2
  148. ID                                       : 8
  149. Format                                   : UTF-8
  150. Codec ID                                 : S_TEXT/UTF8
  151. Codec ID/Info                            : UTF-8 Plain Text
  152. Duration                                 : 59 min 47 s
  153. Bit rate                                 : 56 b/s
  154. Count of elements                        : 718
  155. Stream size                              : 24.7 KiB (0%)
  156. Title                                    : Latin American (SDH)
  157. Language                                 : Spanish
  158. Default                                  : No
  159. Forced                                   : No

  160. Text #3
  161. ID                                       : 9
  162. Format                                   : UTF-8
  163. Codec ID                                 : S_TEXT/UTF8
  164. Codec ID/Info                            : UTF-8 Plain Text
  165. Duration                                 : 59 min 45 s
  166. Bit rate                                 : 91 b/s
  167. Count of elements                        : 930
  168. Stream size                              : 40.0 KiB (0%)
  169. Title                                    : SDH
  170. Language                                 : Korean
  171. Default                                  : No
  172. Forced                                   : No

  173. Text #4
  174. ID                                       : 10
  175. Format                                   : UTF-8
  176. Codec ID                                 : S_TEXT/UTF8
  177. Codec ID/Info                            : UTF-8 Plain Text
  178. Duration                                 : 59 min 49 s
  179. Bit rate                                 : 56 b/s
  180. Count of elements                        : 811
  181. Stream size                              : 24.7 KiB (0%)
  182. Title                                    : Brazilian (SDH)
  183. Language                                 : Portuguese
  184. Default                                  : No
  185. Forced                                   : No

  186. Text #5
  187. ID                                       : 11
  188. Format                                   : UTF-8
  189. Codec ID                                 : S_TEXT/UTF8
  190. Codec ID/Info                            : UTF-8 Plain Text
  191. Duration                                 : 59 min 47 s
  192. Bit rate                                 : 157 b/s
  193. Count of elements                        : 830
  194. Stream size                              : 69.0 KiB (0%)
  195. Title                                    : SDH
  196. Language                                 : Thai
  197. Default                                  : No
  198. Forced                                   : No

  199. Text #6
  200. ID                                       : 12
  201. Format                                   : UTF-8
  202. Codec ID                                 : S_TEXT/UTF8
  203. Codec ID/Info                            : UTF-8 Plain Text
  204. Duration                                 : 59 min 47 s
  205. Bit rate                                 : 59 b/s
  206. Count of elements                        : 827
  207. Stream size                              : 26.2 KiB (0%)
  208. Title                                    : Traditional (SDH)
  209. Language                                 : Chinese
  210. Default                                  : No
  211. Forced                                   : No

  212. Text #7
  213. ID                                       : 13
  214. Format                                   : UTF-8
  215. Codec ID                                 : S_TEXT/UTF8
  216. Codec ID/Info                            : UTF-8 Plain Text
  217. Duration                                 : 59 min 47 s
  218. Bit rate                                 : 73 b/s
  219. Count of elements                        : 599
  220. Stream size                              : 32.3 KiB (0%)
  221. Language                                 : Arabic
  222. Default                                  : No
  223. Forced                                   : No

  224. Text #8
  225. ID                                       : 14
  226. Format                                   : UTF-8
  227. Codec ID                                 : S_TEXT/UTF8
  228. Codec ID/Info                            : UTF-8 Plain Text
  229. Duration                                 : 59 min 47 s
  230. Bit rate                                 : 44 b/s
  231. Count of elements                        : 599
  232. Stream size                              : 19.4 KiB (0%)
  233. Language                                 : Czech
  234. Default                                  : No
  235. Forced                                   : No

  236. Text #9
  237. ID                                       : 15
  238. Format                                   : UTF-8
  239. Codec ID                                 : S_TEXT/UTF8
  240. Codec ID/Info                            : UTF-8 Plain Text
  241. Duration                                 : 59 min 47 s
  242. Bit rate                                 : 42 b/s
  243. Count of elements                        : 554
  244. Stream size                              : 18.6 KiB (0%)
  245. Language                                 : Danish
  246. Default                                  : No
  247. Forced                                   : No

  248. Text #10
  249. ID                                       : 16
  250. Format                                   : UTF-8
  251. Codec ID                                 : S_TEXT/UTF8
  252. Codec ID/Info                            : UTF-8 Plain Text
  253. Duration                                 : 59 min 47 s
  254. Bit rate                                 : 48 b/s
  255. Count of elements                        : 584
  256. Stream size                              : 21.4 KiB (0%)
  257. Language                                 : German
  258. Default                                  : No
  259. Forced                                   : No

  260. Text #11
  261. ID                                       : 17
  262. Format                                   : UTF-8
  263. Codec ID                                 : S_TEXT/UTF8
  264. Codec ID/Info                            : UTF-8 Plain Text
  265. Duration                                 : 59 min 46 s
  266. Bit rate                                 : 76 b/s
  267. Count of elements                        : 598
  268. Stream size                              : 33.6 KiB (0%)
  269. Language                                 : Greek
  270. Default                                  : No
  271. Forced                                   : No

  272. Text #12
  273. ID                                       : 18
  274. Format                                   : UTF-8
  275. Codec ID                                 : S_TEXT/UTF8
  276. Codec ID/Info                            : UTF-8 Plain Text
  277. Duration                                 : 59 min 47 s
  278. Bit rate                                 : 48 b/s
  279. Count of elements                        : 599
  280. Stream size                              : 21.1 KiB (0%)
  281. Title                                    : Latin American
  282. Language                                 : Spanish
  283. Default                                  : No
  284. Forced                                   : No

  285. Text #13
  286. ID                                       : 19
  287. Format                                   : UTF-8
  288. Codec ID                                 : S_TEXT/UTF8
  289. Codec ID/Info                            : UTF-8 Plain Text
  290. Duration                                 : 54 min 48 s
  291. Bit rate                                 : 9 b/s
  292. Count of elements                        : 120
  293. Stream size                              : 3.82 KiB (0%)
  294. Title                                    : Latin American (Forced)
  295. Language                                 : Spanish
  296. Default                                  : No
  297. Forced                                   : No

  298. Text #14
  299. ID                                       : 20
  300. Format                                   : UTF-8
  301. Codec ID                                 : S_TEXT/UTF8
  302. Codec ID/Info                            : UTF-8 Plain Text
  303. Duration                                 : 59 min 47 s
  304. Bit rate                                 : 42 b/s
  305. Count of elements                        : 596
  306. Stream size                              : 18.8 KiB (0%)
  307. Title                                    : European
  308. Language                                 : Spanish
  309. Default                                  : No
  310. Forced                                   : No

  311. Text #15
  312. ID                                       : 21
  313. Format                                   : UTF-8
  314. Codec ID                                 : S_TEXT/UTF8
  315. Codec ID/Info                            : UTF-8 Plain Text
  316. Duration                                 : 59 min 47 s
  317. Bit rate                                 : 48 b/s
  318. Count of elements                        : 555
  319. Stream size                              : 21.1 KiB (0%)
  320. Language                                 : Finnish
  321. Default                                  : No
  322. Forced                                   : No

  323. Text #16
  324. ID                                       : 22
  325. Format                                   : UTF-8
  326. Codec ID                                 : S_TEXT/UTF8
  327. Codec ID/Info                            : UTF-8 Plain Text
  328. Duration                                 : 59 min 47 s
  329. Bit rate                                 : 46 b/s
  330. Count of elements                        : 598
  331. Stream size                              : 20.4 KiB (0%)
  332. Language                                 : French
  333. Default                                  : No
  334. Forced                                   : No

  335. Text #17
  336. ID                                       : 23
  337. Format                                   : UTF-8
  338. Codec ID                                 : S_TEXT/UTF8
  339. Codec ID/Info                            : UTF-8 Plain Text
  340. Duration                                 : 59 min 50 s
  341. Bit rate                                 : 66 b/s
  342. Count of elements                        : 598
  343. Stream size                              : 29.2 KiB (0%)
  344. Language                                 : Hebrew
  345. Default                                  : No
  346. Forced                                   : No

  347. Text #18
  348. ID                                       : 24
  349. Format                                   : UTF-8
  350. Codec ID                                 : S_TEXT/UTF8
  351. Codec ID/Info                            : UTF-8 Plain Text
  352. Duration                                 : 59 min 50 s
  353. Bit rate                                 : 40 b/s
  354. Count of elements                        : 599
  355. Stream size                              : 17.6 KiB (0%)
  356. Language                                 : Hungarian
  357. Default                                  : No
  358. Forced                                   : No

  359. Text #19
  360. ID                                       : 25
  361. Format                                   : UTF-8
  362. Codec ID                                 : S_TEXT/UTF8
  363. Codec ID/Info                            : UTF-8 Plain Text
  364. Duration                                 : 59 min 47 s
  365. Bit rate                                 : 44 b/s
  366. Count of elements                        : 593
  367. Stream size                              : 19.6 KiB (0%)
  368. Language                                 : Indonesian
  369. Default                                  : No
  370. Forced                                   : No

  371. Text #20
  372. ID                                       : 26
  373. Format                                   : UTF-8
  374. Codec ID                                 : S_TEXT/UTF8
  375. Codec ID/Info                            : UTF-8 Plain Text
  376. Duration                                 : 59 min 47 s
  377. Bit rate                                 : 45 b/s
  378. Count of elements                        : 603
  379. Stream size                              : 19.9 KiB (0%)
  380. Language                                 : Italian
  381. Default                                  : No
  382. Forced                                   : No

  383. Text #21
  384. ID                                       : 27
  385. Format                                   : UTF-8
  386. Codec ID                                 : S_TEXT/UTF8
  387. Codec ID/Info                            : UTF-8 Plain Text
  388. Duration                                 : 59 min 46 s
  389. Bit rate                                 : 46 b/s
  390. Count of elements                        : 636
  391. Stream size                              : 20.2 KiB (0%)
  392. Language                                 : Japanese
  393. Default                                  : No
  394. Forced                                   : No

  395. Text #22
  396. ID                                       : 28
  397. Format                                   : UTF-8
  398. Codec ID                                 : S_TEXT/UTF8
  399. Codec ID/Info                            : UTF-8 Plain Text
  400. Duration                                 : 53 min 9 s
  401. Bit rate                                 : 9 b/s
  402. Count of elements                        : 99
  403. Stream size                              : 3.56 KiB (0%)
  404. Title                                    : Forced
  405. Language                                 : Korean
  406. Default                                  : No
  407. Forced                                   : No

  408. Text #23
  409. ID                                       : 29
  410. Format                                   : UTF-8
  411. Codec ID                                 : S_TEXT/UTF8
  412. Codec ID/Info                            : UTF-8 Plain Text
  413. Duration                                 : 59 min 47 s
  414. Bit rate                                 : 43 b/s
  415. Count of elements                        : 556
  416. Stream size                              : 19.2 KiB (0%)
  417. Language                                 : Norwegian Bokmal
  418. Default                                  : No
  419. Forced                                   : No

  420. Text #24
  421. ID                                       : 30
  422. Format                                   : UTF-8
  423. Codec ID                                 : S_TEXT/UTF8
  424. Codec ID/Info                            : UTF-8 Plain Text
  425. Duration                                 : 59 min 47 s
  426. Bit rate                                 : 39 b/s
  427. Count of elements                        : 585
  428. Stream size                              : 17.2 KiB (0%)
  429. Language                                 : Dutch
  430. Default                                  : No
  431. Forced                                   : No

  432. Text #25
  433. ID                                       : 31
  434. Format                                   : UTF-8
  435. Codec ID                                 : S_TEXT/UTF8
  436. Codec ID/Info                            : UTF-8 Plain Text
  437. Duration                                 : 59 min 47 s
  438. Bit rate                                 : 33 b/s
  439. Count of elements                        : 595
  440. Stream size                              : 14.8 KiB (0%)
  441. Language                                 : Polish
  442. Default                                  : No
  443. Forced                                   : No

  444. Text #26
  445. ID                                       : 32
  446. Format                                   : UTF-8
  447. Codec ID                                 : S_TEXT/UTF8
  448. Codec ID/Info                            : UTF-8 Plain Text
  449. Duration                                 : 59 min 47 s
  450. Bit rate                                 : 43 b/s
  451. Count of elements                        : 597
  452. Stream size                              : 19.0 KiB (0%)
  453. Title                                    : European
  454. Language                                 : Portuguese
  455. Default                                  : No
  456. Forced                                   : No

  457. Text #27
  458. ID                                       : 33
  459. Format                                   : UTF-8
  460. Codec ID                                 : S_TEXT/UTF8
  461. Codec ID/Info                            : UTF-8 Plain Text
  462. Duration                                 : 59 min 47 s
  463. Bit rate                                 : 41 b/s
  464. Count of elements                        : 597
  465. Stream size                              : 18.1 KiB (0%)
  466. Title                                    : Brazilian
  467. Language                                 : Portuguese
  468. Default                                  : No
  469. Forced                                   : No

  470. Text #28
  471. ID                                       : 34
  472. Format                                   : UTF-8
  473. Codec ID                                 : S_TEXT/UTF8
  474. Codec ID/Info                            : UTF-8 Plain Text
  475. Duration                                 : 59 min 50 s
  476. Bit rate                                 : 8 b/s
  477. Count of elements                        : 129
  478. Stream size                              : 3.65 KiB (0%)
  479. Title                                    : Brazilian (Forced)
  480. Language                                 : Portuguese
  481. Default                                  : No
  482. Forced                                   : No

  483. Text #29
  484. ID                                       : 35
  485. Format                                   : UTF-8
  486. Codec ID                                 : S_TEXT/UTF8
  487. Codec ID/Info                            : UTF-8 Plain Text
  488. Duration                                 : 59 min 47 s
  489. Bit rate                                 : 49 b/s
  490. Count of elements                        : 598
  491. Stream size                              : 21.7 KiB (0%)
  492. Language                                 : Romanian
  493. Default                                  : No
  494. Forced                                   : No

  495. Text #30
  496. ID                                       : 36
  497. Format                                   : UTF-8
  498. Codec ID                                 : S_TEXT/UTF8
  499. Codec ID/Info                            : UTF-8 Plain Text
  500. Duration                                 : 59 min 47 s
  501. Bit rate                                 : 66 b/s
  502. Count of elements                        : 599
  503. Stream size                              : 28.9 KiB (0%)
  504. Language                                 : Russian
  505. Default                                  : No
  506. Forced                                   : No

  507. Text #31
  508. ID                                       : 37
  509. Format                                   : UTF-8
  510. Codec ID                                 : S_TEXT/UTF8
  511. Codec ID/Info                            : UTF-8 Plain Text
  512. Duration                                 : 59 min 47 s
  513. Bit rate                                 : 43 b/s
  514. Count of elements                        : 536
  515. Stream size                              : 19.1 KiB (0%)
  516. Language                                 : Swedish
  517. Default                                  : No
  518. Forced                                   : No

  519. Text #32
  520. ID                                       : 38
  521. Format                                   : UTF-8
  522. Codec ID                                 : S_TEXT/UTF8
  523. Codec ID/Info                            : UTF-8 Plain Text
  524. Duration                                 : 59 min 47 s
  525. Bit rate                                 : 117 b/s
  526. Count of elements                        : 599
  527. Stream size                              : 51.4 KiB (0%)
  528. Language                                 : Thai
  529. Default                                  : No
  530. Forced                                   : No

  531. Text #33
  532. ID                                       : 39
  533. Format                                   : UTF-8
  534. Codec ID                                 : S_TEXT/UTF8
  535. Codec ID/Info                            : UTF-8 Plain Text
  536. Duration                                 : 59 min 47 s
  537. Bit rate                                 : 23 b/s
  538. Count of elements                        : 128
  539. Stream size                              : 10.4 KiB (0%)
  540. Title                                    : Forced
  541. Language                                 : Thai
  542. Default                                  : No
  543. Forced                                   : No

  544. Text #34
  545. ID                                       : 40
  546. Format                                   : UTF-8
  547. Codec ID                                 : S_TEXT/UTF8
  548. Codec ID/Info                            : UTF-8 Plain Text
  549. Duration                                 : 59 min 47 s
  550. Bit rate                                 : 42 b/s
  551. Count of elements                        : 590
  552. Stream size                              : 18.8 KiB (0%)
  553. Language                                 : Turkish
  554. Default                                  : No
  555. Forced                                   : No

  556. Text #35
  557. ID                                       : 41
  558. Format                                   : UTF-8
  559. Codec ID                                 : S_TEXT/UTF8
  560. Codec ID/Info                            : UTF-8 Plain Text
  561. Duration                                 : 59 min 47 s
  562. Bit rate                                 : 60 b/s
  563. Count of elements                        : 597
  564. Stream size                              : 26.6 KiB (0%)
  565. Language                                 : Vietnamese
  566. Default                                  : No
  567. Forced                                   : No

  568. Text #36
  569. ID                                       : 42
  570. Format                                   : UTF-8
  571. Codec ID                                 : S_TEXT/UTF8
  572. Codec ID/Info                            : UTF-8 Plain Text
  573. Duration                                 : 59 min 47 s
  574. Bit rate                                 : 42 b/s
  575. Count of elements                        : 599
  576. Stream size                              : 18.5 KiB (0%)
  577. Title                                    : Simplified
  578. Language                                 : Chinese
  579. Default                                  : No
  580. Forced                                   : No

  581. Text #37
  582. ID                                       : 43
  583. Format                                   : UTF-8
  584. Codec ID                                 : S_TEXT/UTF8
  585. Codec ID/Info                            : UTF-8 Plain Text
  586. Duration                                 : 59 min 47 s
  587. Bit rate                                 : 42 b/s
  588. Count of elements                        : 598
  589. Stream size                              : 18.7 KiB (0%)
  590. Title                                    : Traditional
  591. Language                                 : Chinese
  592. Default                                  : No
  593. Forced                                   : No
复制代码






郑重声明:
本站提供的所有影视综艺作品均是在网上搜集,任何涉及商业盈利目的均不得使用,否则产生的一切后果将由您自己承担!本站将不对本站的任何内容负任何法律责任!该下载内容仅做宽带测试使用,请在下载后24小时内删除。请购买正版!

购买主题 已有 3 人购买  本主题需向作者支付 500 魔力 才能浏览
匿名
匿名  发表于 2019-11-27 22:01:41
希望是能够看的
匿名
匿名  发表于 2019-11-29 19:58:27
最喜欢李胜基!
您需要登录后才可以回帖 登录 | 立即注册

本版积分规则

QQ|Archiver|E-MAIL:admin@gotvv.com|小黑屋|电视剧之家 |网站地图

GMT+8, 2019-12-12 12:22

Powered by Discuz! X3.4

© 2001-2017 Comsenz Inc.

快速回复 返回顶部 返回列表